“@device_cm_{33D9A762-90C8-11D0-BD43-00A0C911CE86}\Microphone (HD Pro Webcam Use cases It becomes more and more common that there is at least one desktop computer or … Quick link too easy to remove after installation, is this a problem? Change ), You are commenting using your Facebook account. Input #0, dshow, from ‘audio=Microphone (HD Pro Webcam C920)’: Duration: N/A, start: 664890.821000, bitrate: 1411 kb/s, Stream #0:0: Audio: pcm_s16le, 44100 Hz, stereo, s16, 1411 kb/s. By using our site, you acknowledge that you have read and understand our Cookie Policy, Privacy Policy, and our Terms of Service. Make sure FFmpeg is in your windows PATH. Note, in Audio Midi Setup.app your "system audio" device will be indicated by a Finder icon and Speaker icon - I use an external monitor through my thunderbolt port and the "system" audio is routed to that device, not the Built-in Speakers. Change ), You are commenting using your Twitter account. Among variety of features, FFmpeg can capture video and audio from your computer's camera and stream them over network to some other remote machine. In a multiwire branch circuit, can the two hots be connected to the same phase? How can I make the seasons change faster in order to shorten the length of a calendar year on it? To learn more, see our tips on writing great answers. On linux, instead of dshow (DirectShow), we need to use 2 different drivers for video and audio: Do not forget to replace video and audio devices names and destination IP address with previously discovered values. and audio devices), [dshow @ 00000000004832a0] “Logitech HD Pro Webcam C920”, [dshow @ 00000000004832a0] Alternative name Given that the Soundflower options are recognized as AV Foundation audio devices and are displayed in the output generated by the ffmpeg avfoundation -list_devices command, a basic capture of your desktop ([1] Capture screen 0) and stereo system sound ([0] Soundflower (2ch)) would be: ffmpeg -f avfoundation -i "1:0" Screen.mov, Note that the "1:0" is "[1] Capture screen 0:[0] Soundflower (2ch)". My planet has a long period orbit. #--- Figure out a reasonable audio source # IMPORTANT: I recommend running Pulse or Jack as your audio # server. it is a third party driver to record application audio. Change audio capture from Internal Audio Analog Stereo to Monitor of Internal Audio Analog Stereo. FFmpeg desktop capture; FFmpeg compilation Audio capturing is enabled by default but you should change your input device's name in the script. Have you ever wondered if you can put it back in action to do something more useful? ( Log Out /  I tried set system output to soundflower and set audio input device to 0 (soundflow) in ffmpeg settings, the audio quality is bad. Stop capturing by pressing q. How to write an effective developer resume: Advice from a hiring manager, “Question closed” notifications experiment results and graduation, MAINTENANCE WARNING: Possible downtime early morning Dec 2/4/9 UTC (8:30PM…, ffmpeg No such filter: 'palettegen' in linux, FFmpeg error Output file #0 does not contain any stream, Error when initializing webcam with ffmpeg. site design / logo © 2020 Stack Exchange Inc; user contributions licensed under cc by-sa. “@device_pnp_\\?\usb#vid_046d&pid_082d&mi_00#7&10c84974&0&0000#{65e8773d-8f56- 11d0-a3b9-00a0c9223196}\{bbefb6c7-2fc4-4139-bb8b-a58bba724083}”, [dshow @ 00000000004832a0] DirectShow audio devices, [dshow @ 00000000004832a0] “Microphone (HD Pro Webcam C920)”, [dshow @ 00000000004832a0] Alternative name –enable-gnutls –enable-iconv –enable-libass –enable-libbluray Create a free website or blog at WordPress.com. Here, keeping some ffmpeg commands handy as I tend to forget if I don't use them quite often. Install MX Player, from top menu go to Network stream, type udp://127.0.0.1:5000 in URL field and press OK. Versatile software developer in everlasting quest of exploring new technologies, One of the first web oriented frameworks I got interested in was JavaServer Faces known as JSF. Did genesis say the sky is made of water? –enable-libopenjpeg –enable-libopus –enable-librtmp –enable-libsnappy Why is R_t (or R_0) and not doubling time the go-to metric for measuring Covid expansion? control audio sources pavucontrol video config explained-framerate 10 -f x11grab -i :0.0+0,0 screengrab at 10 fps, starting in the upper left hand corner, send a 1024x720 pixel video. –enable-libbs2b –enable-libcaca –enable-libfreetype –enable-libgme FFmpeg is one of leading frameworks for multimedia processing. muxing overhead: 0.004913%, Pingback: #StackBounty: #shell-script #audio #video #ffmpeg Script for ffmpeg webcam audio video recording – TechUtils.in. Well I have an idea for you: turn it into live surveillance device, From command line prompt type and execute, and you will see all video and audio devices available on your system. What's the implying meaning of "sentence" in "Home is the first sentence"? copy DTMFToneSample2.wav, ffmpeg -f dshow -i audio=”Microphone (HD Pro Webcam C920)” -vn -sn -acodec I suspect that the reason your audio doesn't sound good is due to a bit depth discrepency. By clicking “Post Your Answer”, you agree to our terms of service, privacy policy and cookie policy. (please pardon me if links dont work) To list the audio-video devices connected to the system To query specific (audio) device: To record audio from the mic (without encoding): To list the audio-video devices connected to the… Now, on machine with camera, open Terminal/command prompt and run following command to start capturing video and audio and generating live stream to another computer. How to limit population growth in a utopia? Can you have a Clarketech artifact that you can replicate but cannot comprehend? –enable-libvpx –enable-libwavpack –enable-libwebp –enable-libx264 Start pavucontrol. indicates that ffmpeg has these formats and bit depths available: ...and I don't see 24 in there. Where should small utility programs store their preferences? Lets reformat previous command so that we can see used options better, On destination computer stream can be watched using VLC player. Start recording with ffmpeg (see example commands below). First discover IP address of computer or smart phone where you want to watch stream from camera: Usually IP address will be something like 192.168.1.x. Per FFmpeg's audio documentation: ffmpeg -sample_fmts You could change your "speakers" in Audio Midi Setup.app >> Audio Devices::Built-in Output::Format until you find something that works, or you could specify the bit depth in the FFmpeg line command to match your settings. Making statements based on opinion; back them up with references or personal experience. Fill in your details below or click an icon to log in: You are commenting using your WordPress.com account. So depending upon your configuration simply changing your audio bit depth to 16 should work with the basic capture syntax: Of note, ffmpeg does handle 24 bit PCM audio: The AVFoundation library works quite well also with 24bit audio depth on various Mac computers but i do recommend to check the audio setup in OSX if the audio is not captured. 4youngpadawans.com presents @rogerdpack looks like Mr. Ingalls is up and running with it again: @SargeBorsch I think the "floating" standards might work with ffmpeg's PCM? "Speaker" audio is your system audio - what Soundflower is giving you access to.. Can it be justified that an economic contraction of 11.3% is "the largest fall for more than 300 years"? ( Log Out /  copy DTMFToneSample2.wav, Guessed Channel Layout for Input Stream #0.0 : stereo. s16, 1411 kb/s, size= 1550kB time=00:00:08.53 bitrate=1489.0kbits/s speed= 1x q, size= 1550kB time=00:00:08.53 bitrate=1489.0kbits/s speed=0.992x, video:0kB audio:1550kB subtitle:0kB other streams:0kB global headers:0kB Stream camera video and audio with FFmpeg Go to the Recording tab and you'll find ffmpeg or Lavf56.15.102 (or similar) listed there. Now it should record system and application audio instead of the microphone. Stack Overflow for Teams is a private, secure spot for you and Output #0, wav, to ‘DTMFToneSample2.wav’: Stream #0:0: Audio: pcm_s16le ([1][0][0][0] / 0x0001), 44100 Hz, stereo, Personally I use Jack and have Qjackctl's patchbay # set-up to automatically connect ffmpeg to ALSA-Jack plugin clients. Among variety of features, FFmpeg can capture video and audio from your computer's camera and stream them over network to some other remote machine. –enable-avisynth –enable-bzlib –enable-fontconfig –enable-frei0r As far as I know FFmpeg will default to the bit depth of the source. (please pardon me if links dont work), >ffmpeg -list_devices true -f dshow -i dummy, ffmpeg -list_devices true -f dshow -i dummy, ffmpeg version N-82966-g6993bb4 Copyright (c) 2000-2016 the FFmpeg developers, configuration: –disable-static –enable-shared –enable-gpl Avoid plastic water bottle, all plastics have adverse effects. –enable-libvidstab –enable-libvo-amrwbenc –enable-libvorbis Likely, your audio recording sounds poor because bits are getting truncated.

.

Vehicle Seizing Letter Format, Belding's Savannah Sparrow, Computer Application Ppt, Enya Solid Wood Ukulele, Best Integrated Marketing Campaigns 2020, Philips Food Processor Hr7761 Review, Labelle Palo Alto, What Is Business Report And Its Types, General Chemistry: The Essential Concepts, 7th Edition Answers, White Cake With Blueberry Topping, What Are The Modern Means Of Communication, Mi Pueblo Menu,